Push (2009) 720p Blu-Ray x264 [Dual-Audio] [English + Hindi] - Ma...

  • Category Movies
  • Type h.264/x264
  • Language Hindi
  • Total size 836.6 MB
  • Uploaded By parshant8
  • Downloads 9021
  • Last checked 1 hour ago
  • Date uploaded 5 years ago
  • Seeders 2
  • Leechers 0

Push

Action

The action packed sci-fi thriller involves a group of young American ex-pats with telekinetic and clairvoyant abilities, hiding from a clandestine U.S. government agency. They must utilize their different talents and band together for a final job enabling them to escape the agency forever.

Infohash : FCBB9C4EA67B7978F0141C7C4F8CB586BE9B8050









Quote:




IMDB Rating: 6.0/10.0


GENRE: Action | Sci-Fi | Thriller



General
Unique ID : 220809098414891190869499023734172059783 (0xA61E49141B0F77ABB32325B8B6048887)
Complete name : Push (2009) 720p Blu-Ray x264 [Dual-Audio] [English + Hindi] - Mafiaking.mkv
Format : Matroska
Format version : Version 4 / Version 2
File size : 828 MiB
Duration : 1h 51mn
Overall bit rate : 1 038 Kbps
Movie name : Push (2009) 720p Blu-Ray x264 [Dual-Audio] [English + Hindi] - Mafiaking
Encoded date : UTC 2013-08-24 10:31:20
Writing application : mkvmerge v6.1.0 ('Old Devil') built on Mar 2 2013 14:32:37
Writing library : libebml v1.3.0 + libmatroska v1.4.0

Video
ID : 1
Format : AVC
Format/Info : Advanced Video Codec
Format profile : [email protected]
Format settings, CABAC : Yes
Format settings, ReFrames : 5 frames
Codec ID : V_MPEG4/ISO/AVC
Duration : 1h 51mn
Bit rate : 846 Kbps
Width : 1 280 pixels
Height : 544 pixels
Display aspect ratio : 2.35:1
Frame rate mode : Constant
Frame rate : 23.976 fps
Color space : YUV
Chroma subsampling : 4:2:0
Bit depth : 8 bits
Scan type : Progressive
Bits/(Pixel*Frame) : 0.051
Stream size : 658 MiB (80%)
Title : Mafiaking
Writing library : x264 core 116 r2074 2641b9e

Language : English
Default : Yes
Forced : No

Audio #1
ID : 2
Format : AC-3
Format/Info : Audio Coding 3
Mode extension : CM (complete main)
Format settings, Endianness : Big
Codec ID : A_AC3
Duration : 1h 51mn
Bit rate mode : Constant
Bit rate : 128 Kbps
Channel(s) : 2 channels
Channel positions : Front: L R
Sampling rate : 48.0 KHz
Bit depth : 16 bits
Compression mode : Lossy
Delay relative to video : 1s 200ms
Stream size : 102 MiB (12%)
Title : Mafiaking
Language : Hindi
Default : Yes
Forced : No

Audio #2
ID : 3
Format : MPEG Audio
Format version : Version 2
Format profile : Layer 3
Mode : Joint stereo
Mode extension : MS Stereo
Codec ID : A_MPEG/L3
Codec ID/Hint : MP3
Duration : 1h 51mn
Bit rate mode : Constant
Bit rate : 64.0 Kbps
Channel(s) : 2 channels
Sampling rate : 24.0 KHz
Compression mode : Lossy
Stream size : 51.0 MiB (6%)
Title : Mafiaking
Writing library : LAME3.99r

Language : English
Default : No
Forced : No




SAMPLE WITH IN TORRENT (IN DUAL AUDIO)










































Special Thanks TO Team RANS CLUBZ For Hindi Audio.


Files:

  • Push (2009) 720p Blu-Ray x264 [Dual-Audio] [English + Hindi] - Mafiaking.mkv (828.0 MB)
  • Push (2009) 720p Blu-Ray x264 [Dual-Audio] [English + Hindi] - Mafiaking.srt (69.3 KB)
  • SaMple-Push (2009) 720p Blu-Ray x264 [Dual-Audio] [English + Hindi] - Mafiaking.mkv (8.5 MB)
  • Torrent Downloaded From ExtraTorrent.com.txt (0.3 KB)

There are currently no comments. Feel free to leave one :)

Code:

  • http://tracker.coppersurfer.tk:6969/announce
  • http://fr33dom.h33t.com:3310/announce
  • udp://9.rarbg.com:2710/announce
  • http://tracker.torrentfrancais.com/announce
  • udp://www.h33t.com:3310/announce
  • http://exodus.desync.com/announce
  • udp://tracker.beeimg.com:6969/announce
  • udp://tracker.openbittorrent.com:80/announce
  • udp://11.rarbg.com:80/announce
  • udp://10.rarbg.com/announce
  • udp://tracker.publicbt.com:80/announce
  • http://p2pdl.com:2710/announce
  • http://bt.poletracker.org:2710/announce
  • http://94.228.192.98/announce
Sitemapby radio.net - Webradio, News Podcasts | Comme des rois | Watch Movie Alice.im.Wunderland.Hinter.den.Spiegeln.3D.2016.MULTI.COMPLETE.BLURAY-GMB | WATCH NOW! | Descargar