The.Hagstone.Demon.2011.BRRip.XviD.AC3-PRESTiGE.[MoviesP2P.com]

  • Category Movies
  • Type Divx/Xvid
  • Language English
  • Total size 1.8 GB
  • Uploaded By moviesp2p
  • Downloads 79
  • Last checked 8 months ago
  • Date uploaded 6 years ago
  • Seeders 0
  • Leechers 0

Infohash : C034CD22B12276347D98608495183366DA9844D5

*******************************************************************************
The.Hagstone.Demon.2011.BRRip.XviD.AC3-PRESTiGE
*******************************************************************************


General Information:

Complete name : The.Hagstone.Demon.2011.BRRip.XviD.AC3-PRESTiGE
Format : AVI
Format/Info : Audio Video Interleave
File size : 1.80 GiB
Duration : 1h 35mn
Overall bit rate : 2 694 Kbps
Language : English
Subs : N/A
Source : 720p-PxHD Many THANKS
Encoder : akosipalos

iMDB: http://www.imdb.com/title/tt1339098/

Video

ID : 0
Format : MPEG-4 Visual
Format profile : Advanced [email protected]
Format settings, BVOP : 2
Format settings, QPel : No
Format settings, GMC : No warppoints
Format settings, Matrix : Default (H.263)
Codec ID : XVID
Codec ID/Hint : XviD
Duration : 1h 35mn
Bit rate : 2 238 Kbps
Width : 720 pixels
Height : 400 pixels
Display aspect ratio : 16:9
Frame rate : 23.976 fps
Color space : YUV
Chroma subsampling : 4:2:0
Bit depth : 8 bits
Scan type : Progressive
Compression mode : Lossy
Bits/(Pixel*Frame) : 0.324
Stream size : 1.50 GiB (83%)
Writing library : XviD 1.2.1 (UTC 2008-12-04)

Audio

ID : 1
Format : AC-3
Format/Info : Audio Coding 3
Mode extension : CM (complete main)
Codec ID : 2000
Duration : 1h 35mn
Bit rate mode : Constant
Bit rate : 448 Kbps
Channel(s) : 2 channels
Channel positions : Front: L R
Sampling rate : 48.0 KHz
Bit depth : 16 bits
Compression mode : Lossy
Stream size : 307 MiB (17%)
Alignment : Aligned on interleaves
Interleave, duration : 64 ms (1.53 video frames)
Interleave, preload duration : 192 ms


Plot:

Douglas Elmore is an alcoholic writer and caretaker haunted by visions of his dead wife
and pursued by supernatural forces bent on revenge for his past deeds...



Release Notes:

WE DONT RELEASE EVERYTHiNG TO OTHERS SiTES YOU WANT MORE OF OUR STUFF COME FiND US AT .......

WE ARE LOOKING FOR SUPPLiERS BLURAY, CAM, R5, PRE RETAiL DVD GOT SOMETHiNG WE MiGHT LiKE WHEN YOU FiND US TELL US.......


GREETZ:

Twisted | Bigguy | CTFX | Whitestag13 | THoRN | SANTi | PA4U2C | Jungledave | mtyy
| marsby | cld | Stortrapp | rizal | mannilim | Rock | Ulap | centserick2 |
musikera | Tukmol | rock3r | canislupus | sickie | fun2knytz | lilyrose | Dreamer
RiZAL Team Release | TRiNiTY | LEGi0N | LEGiTiMATE | HiVE-CM8 | BHRG | DTRG
CrEwSaDe | Rx | LKRG | THC | aTLas

PRESTiGE is the level of respect at which one is regarded by others....RIzE Above Or Sink Below...

Files:

  • prestige-the.hagstone.demon.2011.brrip.xvid.avi (1.8 GB)
  • sample.avi (17.9 MB)
  • prestige-the.hagstone.demon.2011.nfo (4.3 KB)
  • prestige-the.hagstone.demon.2011.brrip.xvid.sfv (0.4 KB)

There are currently no comments. Feel free to leave one :)

Code:

  • udp://tracker.1337x.org:80/announce
  • udp://tracker.openbittorrent.com:80/announce
  • udp://tracker.publicbt.com:80/announce
SitemapPokemon Czerń i Biel: Ścieżki Przeznaczenia (2010) Pocket Monsters: Best Wishes! | Datos legales | Erotik (207) YOU ZHANGJING | Ver Pelicula | HD Bolshoy