Twilight Saga Breaking Dawn Part 1.2011.TS.V2(NEW SOURCE).Xvid-S....

  • Category Movies
  • Type h.264/x264
  • Language English
  • Total size 1.4 GB
  • Uploaded By AMohammed
  • Downloads 229
  • Last checked 14 hours ago
  • Date uploaded 7 years ago
  • Seeders 0
  • Leechers 0

The Twilight Saga: Breaking Dawn - ...

AdventureFantasyRomance

The new found married bliss of Bella Swan and vampire Edward Cullen is cut short when a series of betrayals and misfortunes threatens to destroy their world. Bella soon discovers she is pregnant, and during a nearly fatal childbirth, Edward finally fulfills her wish to become immortal. But the arrival of their remarkable daughter, Renesmee, sets in motion a perilous chain of events that pits the Cullens and their allies against the Volturi, the fearsome council of vampire leaders, setting the stage for an all-out battle.

Infohash : EF7DEA9A0121DD27247FEE9ED34A9BACD3D50FF3

*******************************************************************************
Twilight Saga Breaking Dawn Part 1.2011.TS.V2(NEW SOURCE).Xvid-SiNiSTER
*******************************************************************************
-------------------------------------------------------------------------------
General Information
-------------------------------------------------------------------------------


Format : AVI
Format/Info : Audio Video Interleave
File size : 1.37 GiB
Duration : 1h 46mn
Overall bit rate : 1 836 Kbps
Writing library : VirtualDub build 32839/release
Video
ID : 0
Format : MPEG-4 Visual
Format profile : Advanced [email protected]
Format settings, BVOP : Yes
Format settings, QPel : Yes
Format settings, GMC : 3 warppoints
Format settings, Matrix : Default (H.263)
Muxing mode : Packed bitstream
Codec ID : XVID
Codec ID/Hint : XviD
Duration : 1h 46mn
Bit rate : 1 698 Kbps
Width : 720 pixels
Height : 304 pixels
Display aspect ratio : 2.35:1
Frame rate : 25.000 fps
Color space : YUV
Chroma subsampling : 4:2:0
Bit depth : 8 bits
Scan type : Progressive
Bits/(Pixel*Frame) : 0.310
Stream size : 1.27 GiB (92%)
Writing library : XviD 64
Audio
ID : 1
Format : MPEG Audio
Format version : Version 1
Format profile : Layer 3
Mode : Joint stereo
Mode extension : MS Stereo
Codec ID : 55
Codec ID/Hint : MP3
Duration : 1h 46mn
Bit rate mode : Variable
Bit rate : 128 Kbps
Channel(s) : 2 channels
Sampling rate : 48.0 KHz
Stream size : 95.8 MiB (7%)
Alignment : Aligned on interleaves
Interleave, duration : 24 ms (0.60 video frame)
Interleave, preload duration : 487 ms
Writing library : LAME3.99
Video Source: TNZ.....thanks
Audio Source: EVOLUTiON (MiSTERE's LiNE and DONE's Cam).....thanks
Greets:
DarkScene,HDScene,Noir,CrEwSaDe,blackjesus,ViSiON,HDLiTE,BTVRG,Twentyforty,UnKnOwN,
FLAWL3SS,Rx,Relizlab,MiSTERE,ILLUMiNATI,SAFCuk009,HiVE-CM8..... and everybody else we
respect.. u know who u are

-------------------------------------------------------------------------------
Post Information
-------------------------------------------------------------------------------
Encoded by...........: SiNiSTER

Have sumthing to offer..looking for suppliers... cammers,cams,screeners, audio
supplier.. and any pre retail DVD/BR any RC...if u can provide any email us at
[email protected]
-------------------------------------------------------------------------------
Release Notes
-------------------------------------------------------------------------------
uses Cam audio to fill a few lil gaps where ther was no LiNE...
source is very nice.. denoise, degrained and smoothed slight RGB adjustment,
hue, saturation,brightness and levels and sharpened.. then just synced and muxed
EVOLUTiONs fixed audio to my encode.....enjoy
-------------------------------------------------------------------------------
ScreenShots
-------------------------------------------------------------------------------






-------------------------------------------------------------------------------

-------------------------------------------------------------------------------
Generated with Cool NFO Creator - http://fly.to/coolbeans
-------------------------------------------------------------------------------

Files:

  • enjoy.txt (0.0 KB)
  • sceneunderground org.txt (0.0 KB)
  • SiNiSTER NFO.nfo (4.7 KB)
  • Twilight Saga Breaking Dawn Part 1.2011.TS.V2(NEW SOURCE).jpg (124.5 KB)
  • Twilight Saga Breaking Dawn Part 1.2011.TS.V2(NEW SOURCE).Xvid-SiNiSTER.avi (1.4 GB)
  • vlcsnap-00001.png (174.5 KB)
  • vlcsnap-00002.png (148.4 KB)
  • vlcsnap-00003.png (362.1 KB)
  • vlcsnap-00004.png (262.8 KB)

There are currently no comments. Feel free to leave one :)

Code:

  • http://tracker.thepiratebay.org/announce
  • udp://tracker.openbittorrent.com:80
  • udp://tracker.publicbt.com:80
  • udp://tracker.istole.it:80
  • udp://tracker.ccc.de:80
  • http://pow7.com/announce
  • udp://tracker.1337x.org:80/announce
  • http://tracker.novalayer.org:6969/announce
  • http://10.rarbg.com/announce
  • http://exodus.desync.com:6969/announce
SitemapConcentration | Battle Creek | Ghost of the Well Lidia Appropriate Use of Transparency | Baixar toque para celular | Maxine Waters