Saawariya (2007) Hindi BluRay 1080p HEVC x265 DTS...TG

  • Category Movies
  • Type HD
  • Language Hindi
  • Total size 4.1 GB
  • Uploaded By rsy007
  • Downloads 590
  • Last checked 2 hours ago
  • Date uploaded 3 years ago
  • Seeders 0
  • Leechers 0

Saawariya

DramaEasternMusicalRomanceForeign

Orphaned and homeless Ranbir Raj re-locates to a small town and orders a glass of milk in the RK Bar. He befriends a prostitute by the name of Gulabji, who invites him to spend the night with her, and when he refuses, she re-directs him to Lillian who rents out rooms. Ranbir meets with Lillian, who has been living alone for 37 years after her son, Vincent, left to join the army and did not return.

Infohash : 5435D4E267EFB2AB2820901ECFED2E51A230319C

Saawariya (2007) Hindi BluRay 1080p HEVC x265 DTS...TG




Storyline:

Two souls arrive in a small town, one on vacation, the other to meet a lover. They spend the most magical dream-like days of their lives in that town... with each other..

Genres:Drama | Musical | Romance
Country: India
Language: Hindi
Release Date:9 November 2007 (India)


Media Information:


Complete name :Saawariya (2007) Hindi BluRay 1080p HEVC x265 DTS...TG


Format : Matroska
Format version : Version 4 / Version 2
File size : 4.15 GiB
Duration : 2h 17mn
Overall bit rate : 4 309 Kbps
Movie name : RSY HEVC ENCODER
Encoded date : UTC 2015-02-10 19:51:08


Video
ID : 1
Format : HEVC
Format/Info : High Efficiency Video Coding
Codec ID : V_MPEGH/ISO/HEVC
Duration : 2h 17mn
Bit rate : 2 714 Kbps
Width : 1 920 pixels
Height : 800 pixels
Display aspect ratio : 2.40:1
Frame rate mode : Constant
Frame rate : 23.976 fps
Bits/(Pixel*Frame) : 0.074
Stream size : 2.61 GiB (63%)
Title : RSY HEVC ENCODER
Language : English
Default : Yes
Forced : No

Audio
ID : 2
Format : DTS
Format/Info : Digital Theater Systems
Mode : 16
Format settings, Endianness : Big
Codec ID : A_DTS
Duration : 2h 17mn
Bit rate mode : Constant
Bit rate : 1 509 Kbps
Channel(s) : 6 channels
Channel positions : Front: L C R, Side: L R, LFE
Sampling rate : 48.0 KHz
Bit depth : 24 bits
Compression mode : Lossy
Stream size : 1.45 GiB (35%)
Title : RSY HEVC ENCODER
Default : Yes
Forced : No




Screenshot:



























I am on FaceBook, Post Your suggestion, and find upcoming Releases at FB Page so keep in touch !!!



Note : Please try to seed as much as you can since "sharing brings joy" !

Files:

  • Saawariya (2007) Hindi BluRay 1080p HEVC x265 DTS...Hon3y.mkv (4.1 GB)
  • Torrent download from www.torrentgarden.net.txt (0.7 KB)
  • Torrent download from CrystalTorrents.com.txt (0.7 KB)
  • Join Us Face Book.txt (0.6 KB)
  • Seeding Powered by www.ultraseedbox.com.txt (0.2 KB)

There are currently no comments. Feel free to leave one :)

Code:

  • http://announce.torrentsmd.com:8080/announce
  • http://torrent.gresille.org/announce
  • http://announce.torrentsmd.com:8080/announce.php
  • http://torrent.gresille.org/announce
  • udp://open.demonii.com:1337/announce
  • udp://coppersurfer.tk:6969/announce
  • udp://tracker.glotorrents.com:6969/announce
  • http://94.228.192.98/announce
  • udp://9.rarbg.com:2710/announce
  • http://torrent.gresille.org/announce.php
SitemapTriple X 2 | Stream in HD | Springsteen On Broadwayver online Single ladies | Saturday Night Live | LK21 Film Download